jueves, 28 de abril de 2016

Deadpool - Latino 700mb 1 link - Version Movil


Deadpool la película, por fín ya la puedes descargar por éste blog, a través de multiservidores (aún subiendo) y a través de torrent, fácil y rápido, los links están de una manera que puedas descargar muy rápido sin esperar más de 5 links que te mandan a otro y otro y otro, nó, conmigo sólo 1 link de publicidad y listo, ya lo tienes,

Ésta versión es ideal para dispositivos portátiles, ya que sólo pesa 700mb, audio español y una resolucion pequeña de para poder encajar a la perfección con una excelente calidad.

Caracteristicas de la version 1.1.0 (Final - Versión portatil) son:

Click en la imagen para ampliar:



Format                      : AVI
Format/Info                 : Audio Video Interleave
File size                   : 700 MiB
Duration                    : 1h 48mn
Overall bit rate            : 905 Kbps

Video
ID                          : 0
Format                      : MPEG-4 Visual
Format profile              : Advanced Simple@L5
Format settings, BVOP       : 2
Format settings, QPel       : No
Format settings, GMC        : No warppoints
Format settings, Matrix     : Default (H.263)
Codec ID                    : XVID
Codec ID/Hint               : XviD
Duration                    : 1h 48mn
Bit rate                    : 771 Kbps
Width                       : 640 pixels
Height                      : 272 pixels
Display aspect ratio        : 2.35:1
Frame rate                  : 23.976 (24000/1001) fps
Color space                 : YUV
Chroma subsampling          : 4:2:0
Bit depth                   : 8 bits
Scan type                   : Progressive
Compression mode            : Lossy
Bits/(Pixel*Frame)          : 0.185
Stream size                 : 596 MiB (85%)
Writing library             : XviD 67

Audio
ID                          : 1
Format                      : MPEG Audio
Format version              : Version 1
Format profile              : Layer 3
Mode                        : Joint stereo
Mode extension              : MS Stereo
Codec ID                    : 55
Codec ID/Hint               : MP3
Duration                    : 1h 48mn
Bit rate mode               : Constant
Bit rate                    : 128 Kbps
Channel(s)                  : 2 channels
Sampling rate               : 48.0 KHz
Compression mode            : Lossy
Stream size                 : 99.0 MiB (14%)
Alignment                   : Aligned on interleaves
Interleave, duration        : 167 ms (4.00 video frames)
Interleave, preload duratio : 216 ms
Title                       : Deadpool.2016.BD.LATiNO
Writing library             : LAME3.99r
Encoding settings           : -m j -V 4 -q 2 -lowpass 17 -b 128





Además, al ser la versión 1.1.0 que subo, iré creando mejoras en el aspecto de Audio y video, para que en un futuro esté en Calidad BR-RIP y en el mínimo espacio. Bueno bueno, lo importante aquí los links:



Sólo tengo Torrent por el momento, está en:


Yo te recomiendo usar Torrent, sólo dale click, espera y disfruta.



Los demás están subiendo, espera un poco más:



Apurate a descargar antes de que lo borren los mendigos.

No hay comentarios.: